osu file format v14

[General]
AudioFilename: honeycolor.mp3
AudioLeadIn: 1500
PreviewTime: 64559
Countdown: 0
SampleSet: None
StackLeniency: 0.7
Mode: 0
LetterboxInBreaks: 0
WidescreenStoryboard: 0

[Editor]
Bookmarks: 69235
DistanceSpacing: 1.1
BeatDivisor: 4
GridSize: 4
TimelineZoom: 1.600001

[Metadata]
Title:color
TitleUnicode:color
Artist:CHiCO with HoneyWorks
ArtistUnicode:CHiCO with HoneyWorks
Creator:monstrata
Version:Sharkie's Hard
Source:
Tags:世界は恋に落ちている sekai wa koi ni ochiteiru アオハライド ao haru ride blue spring ride appleeaterx sharkie Rizen [Rizen] Nerodae k_i_a_i
BeatmapID:820526
BeatmapSetID:373114

[Difficulty]
HPDrainRate:5
CircleSize:4
OverallDifficulty:7
ApproachRate:8
SliderMultiplier:1.3
SliderTickRate:1

[Events]
//Background and Video events
0,0,"38631998_p0.jpg",0,0
//Break Periods
//Storyboard Layer 0 (Background)
//Storyboard Layer 1 (Fail)
//Storyboard Layer 2 (Pass)
//Storyboard Layer 3 (Foreground)
//Storyboard Sound Samples

[TimingPoints]
726,333.333333333333,4,2,1,50,1,0
726,-125,4,2,1,50,0,0
8725,-125,4,2,1,50,0,0
11059,-125,4,3,2,85,0,0
11392,-100,4,3,3,85,0,0
13559,-100,4,3,2,85,0,0
14059,-111.111111111111,4,3,2,85,0,0
16725,-111.111111111111,4,3,3,85,0,0
16892,-111.111111111111,4,3,3,45,0,0
18059,-111.111111111111,4,3,3,50,0,0
18225,-111.111111111111,4,3,3,55,0,0
18392,-111.111111111111,4,3,3,60,0,0
18559,-111.111111111111,4,3,3,60,0,0
18725,-111.111111111111,4,3,3,70,0,0
18892,-111.111111111111,4,3,3,80,0,0
19059,-111.111111111111,4,3,2,100,0,0
19392,-99.9999999999999,4,3,2,100,0,0
23559,-99.9999999999999,4,3,3,100,0,0
23725,-99.9999999999999,4,3,2,100,0,0
24392,-99.9999999999999,4,3,3,100,0,0
24892,-99.9999999999999,4,3,2,100,0,0
28559,-99.9999999999999,4,3,3,100,0,0
28892,-99.9999999999999,4,3,2,100,0,0
30059,-111.111111111111,4,3,4,85,0,0
30392,-111.111111111111,4,2,1,50,0,0
38059,-111.111111111111,4,2,4,50,0,0
40559,-111.111111111111,4,3,4,50,0,0
40725,-100,4,3,4,85,0,0
45392,-100,4,3,2,85,0,0
45559,-100,4,3,4,85,0,0
45892,-100,4,2,2,85,0,0
46059,-100,4,3,4,85,0,0
50559,-100,4,3,2,85,0,0
50725,-100,4,3,2,85,0,0
51392,-111.111111111111,4,3,2,85,0,0
54059,-111.111111111111,4,3,3,85,0,0
54392,-111.111111111111,4,2,2,85,0,0
56725,-111.111111111111,4,3,3,85,0,0
57059,-111.111111111111,4,2,2,85,0,0
59392,-111.111111111111,4,3,3,85,0,0
59725,-111.111111111111,4,2,2,85,0,0
62392,-111.111111111111,4,3,3,85,0,0
62503,-111.111111111111,4,2,2,85,0,0
62837,-111.111111111111,4,3,2,85,0,0
64392,-111.111111111111,4,3,2,5,0,0
64725,-100,4,3,2,100,0,1
70892,-100,4,3,3,100,0,1
71059,-100,4,3,2,100,0,1
72725,-100,4,3,2,100,0,0
75392,-100,4,3,2,100,0,1
78892,-100,4,3,3,100,0,1
79059,-100,4,3,2,100,0,1
80225,-100,4,3,3,100,0,1
80392,-100,4,3,2,100,0,1
85059,-100,4,3,3,100,0,1
85225,-100,4,3,2,100,0,1
86059,-100,4,3,3,100,0,0
88225,-100,4,3,2,100,0,0
88725,-100,4,3,3,100,0,0
88892,-100,4,3,2,100,0,0
91059,-100,4,3,3,100,0,0
91225,-100,4,3,2,100,0,0
91392,-100,4,3,3,100,0,0
91559,-100,4,3,2,100,0,0
92725,-125,4,3,2,100,0,0
93059,-125,4,2,1,100,0,0

[Colours]
Combo1 : 159,255,255
Combo2 : 255,255,100
Combo3 : 255,166,77
Combo4 : 207,159,255

[HitObjects]
73,80,726,5,4,0:0:0:0:
276,38,2059,5,2,0:0:0:0:
83,116,3392,5,8,0:0:0:0:
275,193,4725,5,2,0:0:0:0:
288,177,5392,1,0,0:0:0:0:
302,161,6059,5,4,0:0:0:0:
147,300,7392,5,2,0:0:0:0:
126,296,8059,1,0,0:0:0:0:
105,293,8725,6,0,B|90:243|90:243|100:204|100:204|74:182|29:171,1,156,8|0,0:0|0:0,0:0:0:0:
38,163,9309,1,0,0:0:0:0:
32,151,9392,2,0,L|25:92,1,52,0|0,0:0|0:0,0:0:0:0:
100,51,9725,2,0,B|121:35|147:30,1,52,0|0,0:0|0:0,0:0:0:0:
248,120,10059,6,0,B|280:138|280:138|353:132,1,104,2|0,0:0|0:0,0:0:0:0:
304,54,10559,2,0,B|249:57|200:81,1,104,2|0,0:0|0:0,0:0:0:0:
156,153,11059,2,0,L|149:215,1,52,2|0,0:0|0:0,0:0:0:0:
234,296,11392,6,0,B|261:286|261:286|298:278,1,65,4|8,1:0|0:0,0:0:0:0:
378,256,11725,1,8,0:0:0:0:
464,259,11892,1,8,1:0:0:0:
464,259,12059,2,0,B|474:223|492:192,1,65,8|8,0:0|0:0,0:0:0:0:
430,136,12392,2,0,B|397:153|362:163,1,65,4|8,1:0|0:0,0:0:0:0:
240,202,12725,5,8,0:0:0:0:
240,202,12892,1,2,1:0:0:0:
263,120,13059,2,0,L|270:53,1,65,8|8,0:0|0:0,0:0:0:0:
353,42,13392,2,0,B|373:43|392:47,3,32.5,8|0|0|0,1:0|0:0|2:0|2:0,0:0:0:0:
426,54,13725,2,0,B|451:55|451:55|492:48,1,65,4|4,0:0|0:0,0:0:0:0:
417,147,14059,6,0,B|376:163|343:190|320:223,2,116.999996429443,12|6|6,0:1|0:0|0:0,0:0:0:0:
490,195,14892,1,8,0:0:0:0:
493,282,15059,2,0,B|476:299|476:299|444:316,1,58.4999982147217,6|8,0:0|0:0,0:0:0:0:
357,319,15392,6,0,L|289:312,1,58.4999982147217,6|8,0:0|0:0,0:0:0:0:
227,261,15725,2,0,B|232:304|232:304|242:320|242:320|251:373,1,116.999996429443,6|6,0:0|0:0,0:0:0:0:
165,358,16225,1,8,0:0:0:0:
79,338,16392,1,6,0:0:0:0:
79,338,16559,1,8,0:0:0:0:
50,251,16725,6,0,B|36:227|36:227|50:161|50:161|37:138,1,116.999996429443,2|6,1:0|0:0,0:0:0:0:
36,54,17225,1,6,0:0:0:0:
113,94,17392,1,6,0:0:0:0:
125,7,17559,1,6,0:0:0:0:
194,63,17725,2,0,B|225:50|258:51,1,58.4999982147217,6|6,0:0|0:0,0:0:0:0:
344,122,18059,6,0,B|357:153|356:186,1,58.4999982147217,6|6,0:0|0:0,0:0:0:0:
391,259,18392,2,0,L|461:253,1,58.4999982147217,6|6,0:0|0:0,0:0:0:0:
498,181,18725,2,0,L|439:176,1,58.4999982147217,6|6,0:0|0:0,0:0:0:0:
304,248,19059,1,12,0:2:0:0:
294,239,19392,6,0,L|155:234,1,130,12|6,0:1|0:0,0:0:0:0:
112,301,19892,1,0,0:0:0:0:
195,314,20059,2,0,B|228:321|258:333,1,65,10|8,0:0|0:0,0:0:0:0:
340,319,20392,2,0,B|368:301|397:287,1,65,6|8,0:0|0:0,0:0:0:0:
479,195,20725,6,0,B|487:171|487:171|493:121,2,65,10|0|6,0:0|0:0|0:0,0:0:0:0:
394,205,21225,1,0,0:0:0:0:
353,130,21392,2,0,B|345:106|345:106|339:56,2,65,10|8|6,0:0|0:0|0:0,0:0:0:0:
369,213,21892,1,8,0:0:0:0:
242,182,22059,6,0,B|194:179|194:179|164:193|164:193|109:190,2,130,10|6|10,0:1|0:0|0:0,0:0:0:0:
291,250,22892,1,8,0:0:0:0:
326,326,23059,2,0,B|364:327|400:337,1,65,6|8,0:0|0:0,0:0:0:0:
291,250,23392,6,0,L|224:240,2,65,10|0|6,0:0|0:0|0:0,0:0:0:0:
375,241,23892,1,0,0:0:0:0:
375,241,24059,2,0,B|372:201|372:201|379:161,1,65,10|8,0:0|0:0,0:0:0:0:
456,211,24392,2,0,B|483:230|498:259,1,65,2|0,1:0|0:0,0:0:0:0:
390,334,24725,6,0,L|378:263,1,65,8|8,1:0|0:0,0:0:0:0:
306,313,25059,2,0,L|294:242,1,65,6|8,0:0|0:0,0:0:0:0:
220,289,25392,2,0,B|184:304|147:307,2,65,6|8|6,0:0|0:0|0:0,0:0:0:0:
219,204,25892,1,8,0:0:0:0:
181,127,26059,6,0,B|153:121|153:121|111:119,1,65,6|8,0:0|0:0,0:0:0:0:
41,158,26392,1,6,0:0:0:0:
41,158,26559,1,8,0:0:0:0:
48,55,26725,2,0,B|67:39|88:29|111:26,1,65,6|8,0:0|0:0,0:0:0:0:
184,58,27059,2,0,B|211:80|246:87,1,65,6|0,0:0|2:0,0:0:0:0:
258,84,27309,1,0,2:0:0:0:
274,83,27392,6,0,B|305:76|305:76|366:84|366:84|412:73,1,130,12|6,0:1|0:0,0:0:0:0:
337,130,27892,1,0,0:0:0:0:
337,130,28059,2,0,B|317:158|308:191,1,65,10|8,0:0|0:0,0:0:0:0:
390,210,28392,1,0,2:0:0:0:
449,271,28559,1,2,1:0:0:0:
449,271,28725,5,8,0:0:0:0:
470,188,28892,1,10,0:2:0:0:
411,127,29059,2,0,L|331:114,1,65,4|8,0:0|0:2,0:0:0:0:
274,160,29392,2,0,B|252:191|237:225,1,65,2|8,0:2|0:2,0:0:0:0:
236,231,29642,1,8,0:2:0:0:
232,246,29725,2,0,L|167:256,1,65,4|4,0:2|0:2,0:0:0:0:
99,199,30059,6,0,B|118:264|121:227|129:268|105:314,2,116.999996429443,12|0|2,2:1|0:0|0:0,0:0:0:0:
47,127,30892,1,0,0:0:0:0:
47,127,31059,2,0,L|36:52,1,58.4999982147217,0|0,0:0|0:0,0:0:0:0:
124,86,31392,6,0,L|113:11,1,58.4999982147217,0|0,0:0|0:0,0:0:0:0:
198,56,31725,2,0,B|165:67|147:103|158:138|183:156,1,116.999996429443,0|2,0:0|0:0,0:0:0:0:
249,200,32225,1,0,0:0:0:0:
169,237,32392,2,0,B|152:262|152:262|145:293,1,58.4999982147217,0|0,0:0|0:0,0:0:0:0:
99,364,32725,6,0,B|139:345|139:345|211:335,1,116.999996429443,8|0,0:0|0:0,0:0:0:0:
298,343,33225,1,0,0:0:0:0:
326,259,33392,2,0,B|330:227|345:199,1,58.4999982147217,2|0,0:0|0:0,0:0:0:0:
402,138,33725,2,0,B|429:127|458:124,1,58.4999982147217,0|0,0:0|0:0,0:0:0:0:
490,42,34059,5,0,0:0:0:0:
402,44,34225,2,0,L|339:37,2,58.4999982147217,0|0|0,0:0|0:0|0:0,0:0:0:0:
412,131,34725,2,0,B|422:159|425:187,1,58.4999982147217,2|0,0:0|0:0,0:0:0:0:
342,203,35059,2,0,B|309:230|309:230|285:237,1,58.4999982147217,0|0,0:0|0:0,0:0:0:0:
218,187,35392,6,0,B|246:204|255:241|237:271|210:282,1,116.999996429443,4|0,0:0|0:0,0:0:0:0:
122,294,35892,1,0,0:0:0:0:
122,294,36059,2,0,B|91:306|68:330,1,58.4999982147217,2|0,0:0|0:0,0:0:0:0:
5,269,36392,2,0,B|18:238|17:205,1,58.4999982147217,0|0,0:0|0:0,0:0:0:0:
21,124,36725,5,0,0:0:0:0:
77,56,36892,2,0,B|102:42|102:42|140:35,2,58.4999982147217,0|0|0,0:0|0:0|0:0,0:0:0:0:
107,138,37392,2,0,L|114:206,1,58.4999982147217,2|0,0:0|0:0,0:0:0:0:
198,176,37725,2,0,L|191:244,1,58.4999982147217,0|0,0:0|0:0,0:0:0:0:
270,259,38059,6,0,B|229:268|194:289|167:317,1,116.999996429443,8|4,0:0|0:0,0:0:0:0:
84,335,38559,1,2,0:0:0:0:
111,251,38725,1,0,0:0:0:0:
111,251,38892,1,10,0:0:0:0:
30,215,39058,1,4,0:0:0:0:
30,215,39225,1,2,0:0:0:0:
138,167,39392,6,0,B|147:136|153:105,1,58.4999982147217,8|0,0:0|0:0,0:0:0:0:
212,45,39725,2,0,L|277:40,1,58.4999982147217,4|2,0:0|0:0,0:0:0:0:
285,49,39975,1,0,0:0:0:0:
300,57,40059,2,0,B|321:69|343:75,2,29.2499991073609,8|0|10,0:0|0:0|0:0,0:0:0:0:
243,124,40392,2,0,B|231:167|231:167|238:200,1,58.4999982147217,4|4,0:0|0:0,0:0:0:0:
240,193,40642,1,4,0:0:0:0:
249,206,40725,6,0,B|262:248|262:248|227:292|227:292|233:331,1,130,12|6,2:1|0:0,0:0:0:0:
305,361,41225,1,0,0:0:0:0:
347,287,41392,2,0,L|350:222,1,65,10|8,0:0|0:0,0:0:0:0:
435,242,41725,2,0,L|438:306,1,65,6|0,0:0|0:0,0:0:0:0:
506,203,42059,6,0,B|507:154|488:109|457:77,1,130,10|6,0:0|0:0,0:0:0:0:
391,128,42559,1,0,0:0:0:0:
381,43,42725,1,10,0:0:0:0:
381,43,42892,1,8,0:0:0:0:
311,91,43059,2,0,B|275:105|238:108,1,65,6|0,0:0|0:0,0:0:0:0:
180,55,43392,6,0,B|183:78|207:97|207:97|208:127|195:147|195:147|194:165|209:188,1,130,10|6,0:0|0:0,0:0:0:0:
222,254,43892,1,0,0:0:0:0:
222,254,44059,1,10,0:0:0:0:
141,230,44225,1,8,0:0:0:0:
141,230,44392,2,0,L|72:222,1,65,6|0,0:0|0:0,0:0:0:0:
39,146,44725,6,0,B|50:107|50:107|36:13,1,130,10|6,0:0|0:0,0:0:0:0:
120,27,45225,1,0,0:0:0:0:
134,35,45309,1,2,0:1:0:0:
145,46,45392,2,0,B|181:57|218:58,1,65,10|8,0:0|0:0,0:0:0:0:
288,86,45725,1,6,0:0:0:0:
363,48,45892,1,0,0:0:0:0:
356,141,46059,6,0,B|325:176|274:182|238:158,1,130,10|6,0:0|0:0,0:0:0:0:
291,91,46559,1,0,0:0:0:0:
291,91,46725,2,0,B|287:59|275:29,1,65,10|8,0:0|0:0,0:0:0:0:
366,147,47059,2,0,B|396:132|422:112,1,65,6|0,0:0|0:0,0:0:0:0:
501,83,47392,5,10,0:0:0:0:
501,83,47559,1,0,0:0:0:0:
378,43,47725,2,0,B|369:77|369:77|383:137|383:137|373:178,1,130,6|10,0:0|0:0,0:0:0:0:
457,190,48225,1,8,0:0:0:0:
483,270,48392,2,0,B|481:304|466:334,1,65,6|0,0:0|0:0,0:0:0:0:
341,286,48725,6,0,B|333:273|333:273|368:220|368:220|374:168,1,130,10|6,0:0|0:0,0:0:0:0:
290,159,49225,1,0,0:0:0:0:
232,96,49392,1,2,0:0:0:0:
232,96,49559,2,0,B|211:106|195:123|185:142,1,65,10|6,0:0|0:0,0:0:0:0:
305,151,49892,1,0,0:0:0:0:
222,234,50059,6,0,B|215:258|215:258|211:307,1,65,10|8,0:0|0:0,0:0:0:0:
127,348,50392,2,0,L|119:273,1,65,4|0,1:0|0:0,0:0:0:0:
112,199,50725,1,2,0:2:0:0:
107,186,50892,1,8,0:2:0:0:
109,173,51059,1,4,0:2:0:0:
106,160,51225,1,8,0:0:0:0:
96,153,51392,6,0,B|111:117|111:117|140:134|166:130|166:130|197:166|241:170|241:170|232:194|241:224,1,233.999992858887,12|0,0:1|0:0,0:0:0:0:
344,40,52725,6,0,L|466:33,1,116.999996429443,,,0:0:0:0:
397,171,53392,2,0,L|275:164,1,116.999996429443,2|0,0:0|0:0,0:0:0:0:
128,148,54059,6,0,B|124:104|105:65|78:35,2,116.999996429443,4|0|0,1:0|0:0|0:0,0:0:0:0:
173,293,55059,2,0,B|160:314|143:331,2,38.9999988098145,0|0|0,0:0|0:0|0:0,0:0:0:0:
193,246,55392,6,0,B|231:232|231:232|309:224,1,116.999996429443,0|0,0:0|0:0,0:0:0:0:
433,309,56059,2,0,B|453:320|453:320|478:328,2,38.9999988098145,0|0|0,0:0|0:0|0:0,0:0:0:0:
435,258,56392,2,0,B|446:238|446:238|454:213,2,38.9999988098145,0|0|0,0:0|0:0|0:0,0:0:0:0:
386,245,56725,6,0,B|397:217|416:201|416:201|418:176|409:159|409:159|421:129,1,116.999996429443,4|0,1:0|0:0,0:0:0:0:
313,27,57392,1,0,0:0:0:0:
174,82,57725,2,0,L|123:78,2,38.9999988098145,0|0|0,0:0|0:0|0:0,0:0:0:0:
222,65,58059,5,0,0:0:0:0:
213,216,58392,2,0,B|210:239|201:260,2,38.9999988098145,0|0|0,0:0|0:0|0:0,0:0:0:0:
163,203,58725,2,0,B|145:217|123:225,2,38.9999988098145,0|0|0,0:0|0:0|0:0,0:0:0:0:
136,158,59059,2,0,B|113:155|92:146,2,38.9999988098145,0|0|0,0:0|0:0|0:0,0:0:0:0:
143,107,59392,6,0,B|191:68|251:56,1,116.999996429443,4|0,1:0|0:0,0:0:0:0:
173,189,60059,1,0,0:0:0:0:
146,40,60392,2,0,L|103:46,2,38.9999988098145,0|0|0,0:0|0:0|0:0,0:0:0:0:
195,48,60725,6,0,B|213:72|213:72|236:173,1,116.999996429443,0|0,0:0|0:0,0:0:0:0:
207,307,61392,1,0,0:0:0:0:
105,197,61725,2,0,L|61:193,2,38.9999988098145,0|0|0,0:0|0:0|0:0,0:0:0:0:
129,241,62059,6,0,B|131:258|138:269|138:269|170:286|170:286|185:311|211:327,1,116.999996429443,0|4,0:0|1:0,0:0:0:0:
355,302,62725,2,0,B|367:282|367:282|371:267,2,38.9999988098145,2|2|0,0:2|0:2|0:0,0:0:0:0:
324,342,63059,2,0,L|285:345,2,38.9999988098145,8|4|0,0:2|0:2|0:0,0:0:0:0:
369,363,63392,5,12,0:1:0:0:
161,215,64725,6,0,B|152:201|157:186|157:186|173:164|182:131|182:131|166:118|161:95,2,130,12|6|10,0:1|0:0|0:0,0:0:0:0:
191,294,65559,1,8,0:0:0:0:
191,294,65725,1,6,0:0:0:0:
245,227,65892,1,10,0:1:0:0:
275,306,66059,6,0,B|303:325|334:334,1,65,0|8,0:0|0:0,0:0:0:0:
409,296,66392,1,6,0:0:0:0:
409,296,66559,1,0,0:0:0:0:
331,172,66725,2,0,L|329:237,1,65,10|8,0:0|0:0,0:0:0:0:
408,207,67059,2,0,B|450:192|450:192|474:195,1,65,6|8,0:0|0:0,0:0:0:0:
509,119,67392,6,0,B|462:122|418:111|380:92,1,130,10|6,0:1|0:0,0:0:0:0:
314,149,67892,1,0,0:0:0:0:
314,149,68059,2,0,B|317:215|288:275,1,130,10|6,0:0|0:0,0:0:0:0:
193,270,68559,1,8,0:0:0:0:
173,188,68725,5,10,0:0:0:0:
254,210,68892,1,0,0:0:0:0:
233,125,69059,2,0,B|218:94|216:60,1,65,6|0,0:0|0:0,0:0:0:0:
302,66,69392,1,10,0:0:0:0:
302,66,69559,1,8,0:0:0:0:
314,149,69725,2,0,B|348:141|376:123,1,65,6|8,0:0|0:0,0:0:0:0:
446,166,70059,6,0,B|410:161|388:121|406:83|438:72,2,130,12|6|10,0:1|0:0|0:0,0:0:0:0:
485,242,70892,1,0,0:0:0:0:
433,310,71059,2,0,B|403:309|403:309|368:303,1,65,6|0,0:0|0:0,0:0:0:0:
234,248,71392,5,10,0:0:0:0:
222,332,71559,1,0,0:0:0:0:
301,303,71725,2,0,B|326:281|341:251,1,65,6|0,0:0|0:0,0:0:0:0:
155,277,72059,2,0,B|137:248|129:216,1,65,10|8,0:0|0:0,0:0:0:0:
37,184,72392,2,0,L|46:254,1,65,6|0,0:0|0:0,0:0:0:0:
165,279,72725,6,0,B|187:270|207:273|207:273|241:249|241:249|264:244|294:231,1,130,12|2,0:1|0:2,0:0:0:0:
368,235,73225,1,4,0:2:0:0:
382,227,73309,1,8,0:2:0:0:
397,224,73392,2,0,B|412:179|412:179|409:153,1,65,4|4,0:2|0:2,0:0:0:0:
431,79,73725,2,0,B|453:86|471:99|483:116,1,65,2|8,0:2|0:2,0:0:0:0:
496,199,74059,5,8,0:2:0:0:
413,224,74225,1,8,0:2:0:0:
361,291,74392,2,0,B|332:298|332:298|290:303,1,65,6|0,0:0|2:0,0:0:0:0:
213,289,74725,2,0,B|209:266|198:247,3,32.5,10|0|0|0,0:1|0:0|2:0|2:0,0:0:0:0:
174,227,75059,2,0,B|178:204|189:185,3,32.5,4|4|4|4,0:0|0:0|0:0|0:0,0:0:0:0:
205,159,75392,6,0,B|225:136|220:107|220:107|237:83|237:83|265:89|284:109,2,130,12|6|10,0:1|0:0|0:0,0:0:0:0:
274,207,76225,1,8,0:0:0:0:
346,163,76392,1,6,0:0:0:0:
346,163,76559,1,0,2:0:0:0:
300,318,76725,6,0,B|292:338|270:349|270:349|235:333|235:333|209:335|181:346,1,130,10|6,0:0|0:0,0:0:0:0:
104,350,77225,1,0,0:0:0:0:
28,312,77392,2,0,L|20:243,1,65,10|8,0:0|0:0,0:0:0:0:
104,260,77725,2,0,L|112:191,1,65,6|8,0:0|0:0,0:0:0:0:
185,153,78059,6,0,B|116:159|116:159|60:133,1,130,10|6,0:0|0:0,0:0:0:0:
28,55,78559,1,0,0:0:0:0:
110,38,78725,2,0,L|190:28,1,65,10|0,0:0|0:0,0:0:0:0:
240,83,79059,1,6,0:0:0:0:
183,145,79225,1,0,0:0:0:0:
330,142,79392,6,0,B|344:124|344:124|354:39|354:39|370:18,1,130,10|6,0:0|0:0,0:0:0:0:
442,61,79892,1,0,2:0:0:0:
454,70,79975,1,0,2:0:0:0:
466,81,80059,2,0,B|496:123|496:123|499:150,1,65,10|0,0:0|0:0,0:0:0:0:
400,158,80392,2,0,B|373:186|355:218,1,65,6|0,0:0|0:0,0:0:0:0:
296,264,80725,6,0,B|324:236|368:284|438:265,1,130,12|6,0:1|0:0,0:0:0:0:
435,351,81225,1,0,0:0:0:0:
361,314,81392,1,10,0:0:0:0:
300,365,81559,1,8,0:0:0:0:
228,319,81725,2,0,L|149:315,1,65,6|0,0:0|2:0,0:0:0:0:
212,246,82059,6,0,B|240:267|259:295,1,65,10|0,0:0|0:0,0:0:0:0:
300,365,82392,1,6,0:0:0:0:
361,314,82559,1,0,0:0:0:0:
361,314,82725,2,0,L|357:249,1,65,10|8,0:0|0:0,0:0:0:0:
388,169,83059,2,0,B|393:145|375:123|351:122,1,65,6|0,0:0|0:0,0:0:0:0:
282,174,83392,6,0,B|257:181|233:181|210:175,1,65,10|0,0:0|0:0,0:0:0:0:
134,194,83725,2,0,B|154:178|156:151|156:151|186:136|186:136|192:115|213:98,1,130,6|10,0:0|0:0,0:0:0:0:
257,26,84225,1,8,0:0:0:0:
325,75,84392,2,0,L|389:68,1,65,6|0,0:0|0:0,0:0:0:0:
468,98,84725,6,0,B|461:123|461:123|466:162,1,65,10|8,0:0|0:0,0:0:0:0:
395,212,85059,1,2,1:0:0:0:
395,212,85225,1,0,0:0:0:0:
315,242,85392,2,0,L|242:232,1,65,2|0,0:2|2:0,0:0:0:0:
234,236,85642,1,0,2:0:0:0:
218,240,85725,1,4,0:0:0:0:
219,324,85892,1,8,0:2:0:0:
324,228,86059,6,0,B|338:193|336:155,1,65,4|8,1:0|0:0,0:0:0:0:
343,80,86392,1,8,0:0:0:0:
343,80,86559,1,2,1:0:0:0:
235,52,86725,2,0,L|166:59,1,65,8|8,0:0|0:0,0:0:0:0:
23,46,87059,2,0,B|56:58|56:58|82:79,1,65,4|8,1:0|0:0,0:0:0:0:
100,186,87392,5,8,0:0:0:0:
100,186,87559,1,2,1:0:0:0:
48,252,87725,2,0,B|26:294|26:294|20:323,1,65,8|8,0:0|0:0,0:0:0:0:
98,348,88059,2,0,L|136:355,3,32.5,8|0|0|0,1:0|0:0|2:0|2:0,0:0:0:0:
168,338,88392,2,0,B|203:326|240:326,1,65,4|4,0:0|0:0,0:0:0:0:
351,276,88725,6,0,B|396:265|396:265|437:233|437:233|479:238,2,130,4|6|6,1:0|0:0|0:0,0:0:0:0:
274,238,89559,1,8,0:0:0:0:
215,177,89725,2,0,L|208:105,1,65,6|8,0:0|0:0,0:0:0:0:
299,157,90059,6,0,B|334:148|364:129,1,65,6|8,0:0|0:0,0:0:0:0:
341,49,90392,2,0,B|309:41|309:41|313:48|313:48|274:32|212:29,1,130,6|6,0:0|0:0,0:0:0:0:
153,73,90892,1,8,0:0:0:0:
87,126,91059,1,2,1:0:0:0:
87,126,91225,1,8,0:0:0:0:
167,157,91392,6,0,L|179:193,3,32.5,8|0|4|4,1:0|0:0|0:0|0:0,0:0:0:0:
179,229,91725,2,0,L|167:265,3,32.5,2|2|8|8,0:2|0:2|0:2|0:2,0:0:0:0:
141,292,92059,2,0,B|128:311|108:322,3,32.5,2|8|4|8,0:2|0:2|0:2|0:0,0:0:0:0:
75,310,92392,2,0,B|57:277|53:240,1,65,6|0,0:0|0:0,0:0:0:0:
87,126,92725,5,12,0:2:0:0:
95,117,94059,5,8,0:0:0:0:
